<?xml version="1.0" standalone="no"?>
<!DOCTYPE svg PUBLIC "-//W3C//DTD SVG 1.1//EN" "http://www.w3.org/Graphics/SVG/1.1/DTD/svg11.dtd" >
<svg xmlns="http://www.w3.org/2000/svg">
<metadata>Generated by IcoMoon</metadata>
<defs>
<font id="wgf_icons" horiz-adv-x="1024">
<font-face units-per-em="1024" ascent="960" descent="-64" />
<missing-glyph horiz-adv-x="1024" />
<glyph unicode="&#x20;" horiz-adv-x="512" d="" />
<glyph unicode="&#xe900;" glyph-name="consulting" d="M847.345 819.84c-43.749 44.189-95.783 79.314-153.126 103.364s-118.864 36.555-181.047 36.796h-3.611c-126.090 0-247.018-50.090-336.177-139.25-89.161-89.16-139.25-210.088-139.25-336.178v-256c0-29.099 11.559-57.004 32.135-77.58s48.482-32.135 77.58-32.135h73.143c29.097 0 57.004 11.559 77.58 32.135s32.135 48.481 32.135 77.58v182.856c0 29.099-11.559 57.004-32.135 77.58s-48.483 32.135-77.58 32.135h-108.069c7.053 76.254 35.695 148.919 82.57 209.476s110.041 106.5 182.093 132.441 150.007 30.807 224.725 14.028c74.72-16.78 143.107-54.51 197.149-108.767 66.053-66.391 106.68-153.878 114.789-247.178h-108.114c-29.099 0-57.004-11.559-77.58-32.135s-32.135-48.481-32.135-77.58v-182.856c0-29.099 11.559-57.004 32.135-77.58s48.481-32.135 77.58-32.135h109.715c0-29.099-11.559-57.004-32.135-77.58s-48.481-32.135-77.58-32.135h-256c-9.699 0-19.002-3.852-25.859-10.711-6.859-6.859-10.713-16.16-10.713-25.859 0-9.701 3.854-19.002 10.713-25.861 6.857-6.857 16.16-10.711 25.859-10.711h256c48.497 0 95.007 19.265 129.299 53.557 34.294 34.294 53.559 80.804 53.559 129.3v365.715c0.237 62.191-11.798 123.817-35.418 181.349s-58.358 109.836-102.228 153.919zM216.991 448c9.699 0 19.002-3.854 25.859-10.711 6.859-6.859 10.711-16.16 10.711-25.861v-182.856c0-9.701-3.852-19.002-10.711-25.861-6.857-6.857-16.16-10.711-25.859-10.711h-73.143c-9.699 0-19.001 3.854-25.86 10.711-6.858 6.859-10.712 16.16-10.712 25.861v219.428h109.715zM802.133 192c-9.699 0-19.002 3.854-25.859 10.711-6.859 6.859-10.713 16.16-10.713 25.861v182.856c0 9.701 3.854 19.002 10.713 25.861 6.857 6.857 16.16 10.711 25.859 10.711h109.715v-256h-109.715z" />
<glyph unicode="&#xe901;" glyph-name="security" d="M885.571 618.667h-151.704v113.778c0 60.351-23.975 118.231-66.649 160.906s-100.555 66.649-160.906 66.649c-60.353 0-118.231-23.975-160.906-66.649s-66.65-100.555-66.65-160.906v-113.778h-151.703c-20.117 0-39.41-7.992-53.635-22.217-14.225-14.223-22.217-33.517-22.217-53.634v-530.965c0-20.116 7.991-39.41 22.217-53.635 14.225-14.223 33.518-22.216 53.635-22.216h758.52c20.116 0 39.41 7.992 53.635 22.216s22.216 33.519 22.216 53.635v530.965c0 20.116-7.991 39.41-22.216 53.634s-33.519 22.217-53.635 22.217zM354.608 732.445c0 40.233 15.983 78.82 44.433 107.27s67.036 44.433 107.271 44.433c40.233 0 78.821-15.983 107.271-44.433 28.448-28.45 44.433-67.037 44.433-107.27v-113.778h-303.408v113.778zM885.571 11.851h-758.52v530.965h758.52v-530.965z" />
<glyph unicode="&#xe902;" glyph-name="concept" d="M720.592 529.541h227.557c20.116 0 39.41 7.991 53.635 22.216 14.223 14.225 22.216 33.519 22.216 53.635v227.556c0 20.117-7.992 39.41-22.216 53.635s-33.519 22.217-53.635 22.217h-227.557c-20.116 0-39.41-7.991-53.635-22.217s-22.216-33.518-22.216-53.635v-75.852h-37.926c-40.235 0-78.821-15.983-107.271-44.433s-44.433-67.036-44.433-107.271v-113.777h-151.704v37.926c0 20.116-7.992 39.41-22.217 53.635s-33.517 22.216-53.635 22.216h-151.703c-20.117 0-39.41-7.991-53.635-22.216s-22.217-33.519-22.217-53.635v-151.704c0-20.116 7.992-39.41 22.217-53.635s33.518-22.217 53.635-22.217h151.703c20.118 0 39.41 7.992 53.635 22.217s22.217 33.519 22.217 53.635v37.926h151.704v-113.778c0-40.233 15.983-78.821 44.433-107.269 28.45-28.45 67.036-44.433 107.271-44.433h37.926v-75.853c0-20.116 7.991-39.41 22.216-53.635s33.519-22.216 53.635-22.216h227.557c20.116 0 39.41 7.991 53.635 22.216 14.223 14.225 22.216 33.519 22.216 53.635v227.555c0 20.118-7.992 39.41-22.216 53.635s-33.519 22.217-53.635 22.217h-227.557c-20.116 0-39.41-7.992-53.635-22.217s-22.216-33.517-22.216-53.635v-75.851h-37.926c-20.118 0-39.41 7.992-53.635 22.217-14.225 14.223-22.217 33.517-22.217 53.634v303.408c0 20.118 7.992 39.41 22.217 53.635s33.517 22.217 53.635 22.217h37.926v-75.853c0-20.116 7.991-39.41 22.216-53.635s33.519-22.216 53.635-22.216zM227.555 377.837h-151.703v151.704h151.703v-151.704zM720.592 301.984h227.557v-227.555h-227.557v227.555zM720.592 832.948h227.557v-227.556h-227.557v227.556z" />
<glyph unicode="&#xe903;" glyph-name="seo" d="M1024 735.696v-292.565c0-9.699-3.854-19.002-10.711-25.859-6.859-6.859-16.16-10.711-25.859-10.711s-19.002 3.852-25.859 10.711c-6.859 6.857-10.711 16.16-10.711 25.859v204.293l-376.404-376.45c-3.398-3.401-7.431-6.098-11.87-7.938-4.441-1.841-9.199-2.789-14.005-2.789s-9.564 0.947-14.005 2.789c-4.439 1.84-8.472 4.536-11.868 7.938l-156.981 157.025-303.262-303.309c-6.862-6.863-16.169-10.718-25.874-10.718s-19.012 3.855-25.874 10.718c-6.862 6.863-10.717 16.169-10.717 25.875 0 9.704 3.855 19.011 10.717 25.873l329.136 329.136c3.396 3.401 7.429 6.098 11.87 7.938 4.439 1.841 9.197 2.789 14.003 2.789s9.566-0.947 14.005-2.789c4.439-1.84 8.474-4.536 11.87-7.938l156.979-157.025 350.577 350.577h-204.293c-9.699 0-19.002 3.852-25.859 10.711-6.859 6.857-10.711 16.16-10.711 25.859s3.852 19 10.711 25.859c6.857 6.857 16.16 10.711 25.859 10.711h292.565c9.699 0 19-3.854 25.859-10.711 6.857-6.859 10.711-16.16 10.711-25.859z" />
<glyph unicode="&#xe904;" glyph-name="code" d="M183.175 545.802l-170.662 170.662c-3.967 3.963-7.114 8.668-9.261 13.848s-3.252 10.732-3.252 16.338c0 5.606 1.105 11.16 3.252 16.338 2.147 5.18 5.294 9.885 9.261 13.848l170.662 170.661c8.006 8.006 18.864 12.503 30.186 12.503 11.32 0 22.18-4.498 30.186-12.503 8.004-8.006 12.503-18.864 12.503-30.186s-4.499-22.18-12.503-30.186l-140.53-140.476 140.53-140.476c8.004-8.004 12.503-18.864 12.503-30.186 0-11.32-4.499-22.18-12.505-30.184-8.004-8.006-18.864-12.505-30.184-12.505-11.322 0-22.18 4.499-30.186 12.503zM396.501 545.802c3.961-3.966 8.666-7.113 13.846-9.26s10.732-3.251 16.338-3.251c5.608 0 11.16 1.104 16.34 3.251s9.885 5.294 13.846 9.26l170.662 170.662c3.966 3.963 7.113 8.668 9.26 13.848 2.149 5.18 3.253 10.732 3.253 16.338s-1.104 11.16-3.253 16.338c-2.147 5.18-5.294 9.885-9.26 13.848l-170.662 170.661c-8.004 8.006-18.864 12.503-30.186 12.503-11.32 0-22.18-4.498-30.184-12.503-8.006-8.006-12.505-18.864-12.505-30.186s4.499-22.18 12.505-30.186l140.529-140.476-140.529-140.476c-3.968-3.961-7.115-8.668-9.262-13.846-2.147-5.18-3.251-10.732-3.251-16.34 0-5.606 1.104-11.158 3.251-16.338s5.294-9.885 9.262-13.848zM938.67 874.646h-127.997c-11.315 0-22.168-4.495-30.169-12.496s-12.496-18.853-12.496-30.169c0-11.315 4.495-22.168 12.496-30.169s18.854-12.497 30.169-12.497h127.997v-767.975h-767.977v341.323c0 11.315-4.495 22.166-12.496 30.169-8.001 8.001-18.853 12.496-30.169 12.496s-22.168-4.495-30.169-12.496c-8.001-8.003-12.496-18.854-12.496-30.169v-341.323c0-22.63 8.99-44.336 24.993-60.337 16.003-16.003 37.707-24.992 60.337-24.992h767.977c22.63 0 44.334 8.989 60.337 24.992 16.002 16.002 24.992 37.707 24.992 60.337v767.975c0 22.632-8.991 44.336-24.992 60.338-16.003 16.003-37.707 24.993-60.337 24.993z" />
<glyph unicode="&#xe905;" glyph-name="design" d="M798.319 618.708c31.834 23.878 55.352 57.167 67.217 95.152s11.479 78.74-1.106 116.493c-12.583 37.753-36.727 70.589-69.011 93.858s-71.071 35.79-110.865 35.79h-341.292c-39.794 0-78.58-12.521-110.865-35.79-32.283-23.269-56.426-56.105-69.011-93.858s-12.971-78.508-1.105-116.493c11.866-37.985 35.382-71.274 67.218-95.152-24.105-18.063-43.559-41.612-56.75-68.692s-19.742-56.914-19.107-87.030 8.436-59.648 22.757-86.147c14.321-26.501 34.749-49.208 59.593-66.241-28.259-21.485-50.567-49.828-64.811-82.343-14.244-32.517-19.953-68.13-16.586-103.47 3.367-35.338 15.698-69.233 35.827-98.475 20.127-29.24 47.386-52.861 79.193-68.623 31.809-15.761 67.113-23.144 102.572-21.448s69.897 12.414 100.055 31.14 55.038 44.839 72.282 75.868c17.246 31.029 26.286 65.946 26.264 101.444v170.646c19.92-14.938 42.588-25.81 66.708-31.988 24.12-6.18 49.222-7.549 73.871-4.028 24.648 3.523 48.364 11.863 69.787 24.55 21.425 12.686 40.143 29.467 55.083 49.388 14.94 19.919 25.81 42.586 31.99 66.707s7.547 49.222 4.026 73.871c-3.521 24.649-11.863 48.364-24.549 69.789s-29.469 40.143-49.388 55.081zM798.319 770.393c0-30.172-11.986-59.107-33.321-80.442s-50.272-33.321-80.444-33.321h-113.765v227.528h113.765c30.172 0 59.109-11.986 80.444-33.321s33.321-50.271 33.321-80.444zM229.499 770.393c0 30.173 11.986 59.109 33.321 80.444s50.27 33.321 80.442 33.321h151.685v-227.528h-151.685c-30.172 0-59.107 11.986-80.442 33.321s-33.321 50.27-33.321 80.442zM343.262 353.26c-30.172 0-59.107 11.986-80.442 33.321-21.335 21.333-33.321 50.27-33.321 80.442s11.986 59.109 33.321 80.444c21.335 21.335 50.27 33.321 80.442 33.321h151.685v-227.528h-151.685zM494.947 144.691c0-26.25-7.784-51.91-22.368-73.737s-35.313-38.839-59.564-48.884c-24.253-10.045-50.939-12.674-76.686-7.554-25.745 5.122-49.394 17.763-67.956 36.325s-31.203 42.211-36.325 67.958c-5.122 25.745-2.493 52.432 7.554 76.684 10.045 24.252 27.056 44.981 48.882 59.564 21.827 14.585 47.488 22.369 73.738 22.369h132.724v-132.726zM684.554 353.26c-22.501 0-44.496 6.671-63.205 19.173-18.707 12.5-33.289 30.268-41.899 51.055-8.612 20.787-10.865 43.662-6.475 65.731 4.39 22.067 15.225 42.339 31.135 58.249s36.181 26.745 58.25 31.135c22.067 4.39 44.942 2.137 65.729-6.473s38.555-23.192 51.057-41.9c12.5-18.708 19.173-40.704 19.173-63.205 0-30.172-11.986-59.109-33.321-80.442-21.335-21.335-50.272-33.321-80.444-33.321z" />
<glyph unicode="&#xe906;" glyph-name="phone" d="M119.852 923.459c60.001 59.81 160.604 43.084 203.081-27.486l0.295-0.491 97.92-167.332c28.834-50.301 21.559-114.966-21.46-157.848l-16.241-16.188c57.504-90.196 144.857-179.424 233.153-232.941l16.147 14.304c43.018 41.941 107.232 48.835 157.273 20.33l0.364-0.208 165.697-96.35c41.025-19.637 62.618-57.586 67.036-95.474 4.417-37.85-7.699-78.932-37.163-108.302l-55.835-55.66c-57.969-57.786-152.339-83.359-232.873-46.87-106.003 43.319-264.987 125.063-409.888 269.503-145.279 144.812-227.169 308.243-270.194 408.214-36.704 80.034-11.412 173.872 46.155 231.804l55.244 59.657c0.42 0.454 0.85 0.9 1.288 1.337zM186.161 858.358l-55.053-59.451c-0.421-0.454-0.85-0.9-1.289-1.337-34.85-34.739-46.446-88.552-27.878-128.654 0.179-0.386 0.352-0.775 0.52-1.166 40.792-94.879 117.066-246.509 250.696-379.715 133.871-133.446 281.489-209.343 380.216-249.603 0.633-0.256 1.258-0.531 1.881-0.816 40.23-18.511 94.213-6.95 129.062 27.788l55.835 55.66c7.76 7.736 11.93 19.987 10.53 31.995-1.314 11.245-6.885 18.954-15.497 22.849-1.428 0.652-2.83 1.374-4.188 2.164l-167.289 97.277c-14.662 8.265-33.463 6.209-46.234-6.526-0.643-0.642-1.309-1.266-1.988-1.865l-41.876-37.106c-14.425-12.778-35.258-15.36-52.378-6.484-125.542 65.070-248.035 192.712-316.919 315.327-10.179 18.118-7.035 40.774 7.697 55.458l41.876 41.743c12.774 12.733 14.834 31.473 6.543 46.085l-97.415 166.466c-13.259 21.748-42.276 23.732-56.854 9.912zM693.564 629.564c-21.393 21.395-54.439 29.063-77.807 21.274-24.311-8.105-50.591 5.036-58.697 29.35-8.102 24.313 5.035 50.594 29.351 58.699 60.16 20.053 129.207-0.121 172.778-43.694 43.576-43.575 63.749-112.62 43.696-172.781-8.103-24.317-34.386-37.453-58.697-29.351-24.315 8.107-37.453 34.386-29.35 58.699 7.791 23.366 0.119 56.412-21.274 77.805zM808.504 744.504c-75.696 75.697-185.733 102.337-284.322 75.793-23.211-6.249-47.092 7.501-53.342 30.711-6.246 23.21 7.501 47.091 30.711 53.34 127.722 34.386 270.114 0.096 368.503-98.294s132.68-240.782 98.295-368.502c-6.252-23.211-30.131-36.958-53.342-30.711-23.211 6.25-36.958 30.129-30.711 53.34 26.542 98.592-0.094 208.626-75.793 284.324z" />
<glyph unicode="&#xe907;" glyph-name="wgf" horiz-adv-x="4476" d="M1188.022 243.42h-61.506l-81.394 484.359h51.626l59.537-380.060h1.843l36.726 240.146-22.811 139.786h51.594l59.664-379.933h1.906l59.537 380.060h51.658l-81.331-484.359h-61.633l-31.77 224.262h-1.97zM1659.388 409.225v-63.539c-1.037-58.401-48.624-105.345-107.175-105.345s-106.137 46.944-107.173 105.248l-0.001 0.097v279.89c1.037 58.401 48.624 105.345 107.175 105.345s106.137-46.944 107.173-105.248l0.001-0.097v-148.873h-162.724v-130.986c0-30.705 24.892-55.597 55.597-55.597s55.597 24.892 55.597 55.597v0 57.567zM1496.665 528.33h111.193v97.247c0 30.705-24.892 55.597-55.597 55.597s-55.597-24.892-55.597-55.597v0zM1723.913 235.572c-0.004 0.351-0.007 0.766-0.007 1.182 0 34.932 17.085 65.875 43.354 84.927l0.304 0.21c-9.305 12.68-14.889 28.596-14.889 45.815 0 0.647 0.008 1.291 0.024 1.934l-0.002-0.095c-0.005 0.342-0.009 0.746-0.009 1.151 0 17.111 5.582 32.916 15.025 45.696l-0.148-0.21c-26.612 19.901-43.653 51.334-43.653 86.747 0 0.207 0.001 0.414 0.002 0.62v-0.032 122.059c0 59.537 42.666 107.159 94.261 107.159 30.753 0 58.552-16.87 75.421-42.666l8.927 37.71h35.741v-224.262c0.001-0.123 0.001-0.268 0.001-0.414 0-58.972-47.806-106.778-106.778-106.778-0.146 0-0.291 0-0.436 0.001h0.023c-14.406-0.512-25.891-12.313-25.891-26.798s11.484-26.286 25.844-26.797l0.047-0.001c0.132 0.001 0.289 0.001 0.446 0.001 58.954 0 106.746-47.791 106.746-106.746 0-0.145 0-0.291-0.001-0.436v0.022-45.653c-1.037-58.401-48.624-105.345-107.175-105.345s-106.137 46.944-107.173 105.248l-0.001 0.097zM1886.637 625.577c0 30.705-24.892 55.597-55.597 55.597s-55.597-24.892-55.597-55.597v0-122.059c0-30.705 24.892-55.597 55.597-55.597s55.597 24.892 55.597 55.597v0zM1775.443 189.92c0-30.705 24.892-55.597 55.597-55.597s55.597 24.892 55.597 55.597v0 45.653c0 30.705-24.892 55.597-55.597 55.597s-55.597-24.892-55.597-55.597v0zM2008.727 625.577c1.037 58.401 48.624 105.345 107.175 105.345s106.137-46.944 107.173-105.248l0.001-0.097v-279.858c-1.037-58.401-48.624-105.345-107.175-105.345s-106.137 46.944-107.173 105.248l-0.001 0.097zM2060.384 345.718c0-30.705 24.892-55.597 55.597-55.597s55.597 24.892 55.597 55.597v0 279.858c0 30.705-24.892 55.597-55.597 55.597s-55.597-24.892-55.597-55.597v0zM2272.669 727.779h53.596v90.321c0 52.638 42.671 95.309 95.309 95.309v0h18.84v-51.594h-18.84c-24.028-0.213-43.451-19.626-43.683-43.629v-90.343h62.523v-51.594h-62.523v-432.83h-51.594v432.766h-53.596zM2642.817 681.141h-36.726c-0.069 0-0.15 0-0.232 0-32.758 0-59.314-26.556-59.314-59.314 0-0.369 0.003-0.737 0.010-1.104l-0.001 0.055v-377.359h-51.594v484.359h35.614l8.927-37.71c16.87 25.797 50.61 42.666 103.219 42.666zM2899.834 409.225v-63.539c-1.037-58.401-48.624-105.345-107.175-105.345s-106.137 46.944-107.173 105.248l-0.001 0.097v279.89c1.037 58.401 48.624 105.345 107.175 105.345s106.137-46.944 107.173-105.248l0.001-0.097v-148.873h-162.756v-130.986c0-30.705 24.892-55.597 55.597-55.597s55.597 24.892 55.597 55.597v0 57.567zM2737.078 528.33h111.193v97.247c0 30.705-24.892 55.597-55.597 55.597s-55.597-24.892-55.597-55.597v0zM3183.663 409.225v-63.539c-1.037-58.401-48.624-105.345-107.175-105.345s-106.137 46.944-107.173 105.248l-0.001 0.097v279.89c1.037 58.401 48.624 105.345 107.175 105.345s106.137-46.944 107.173-105.248l0.001-0.097v-148.873h-162.756v-130.986c0-30.705 24.892-55.597 55.597-55.597s55.597 24.892 55.597 55.597v0 57.567zM3020.906 528.33h111.193v97.247c0 30.705-24.892 55.597-55.597 55.597s-55.597-24.892-55.597-55.597v0zM3331.519 238.558c-0.095 0-0.207-0.001-0.319-0.001-39.285 0-71.132 31.847-71.132 71.132 0 0.157 0.001 0.313 0.002 0.47v-0.024 597.269l51.594 5.941v-603.21c0.036-10.951 8.904-19.82 19.853-19.856h0.003zM3601.433 312.963c0-0.019 0-0.041 0-0.064 0-9.825 7.965-17.791 17.791-17.791 0.022 0 0.045 0 0.067 0h-0.003v-51.69c-0.022 0-0.048 0-0.074 0-20.702 0-39.358 8.757-52.467 22.77l-0.038 0.041c-18.622-17.217-43.618-27.776-71.081-27.776-0.487 0-0.973 0.003-1.459 0.010l0.073-0.001c-0.132-0.001-0.289-0.001-0.446-0.001-58.937 0-106.714 47.777-106.714 106.714 0 0.157 0 0.313 0.001 0.47v-0.024 54.676c0 49.625 43.651 74.436 43.651 74.436l76.406 43.651s42.698 24.812 42.698 64.524v48.608c0 27.407-22.218 49.625-49.625 49.625s-49.625-22.218-49.625-49.625v0-57.694l-51.594-5.941v63.539c0 55.902 45.317 101.218 101.218 101.218s101.218-45.317 101.218-101.218v0zM3438.677 345.718c0-30.705 24.892-55.597 55.597-55.597s55.597 24.892 55.597 55.597v0 140.93c-4.935-4.852-10.468-9.121-16.473-12.68l-0.398-0.218-76.437-43.683s-17.855-9.912-17.855-29.768zM3687.751 243.42v484.359h35.741l8.927-37.71c16.87 25.797 44.477 42.666 75.421 42.666 51.594 0 94.261-47.654 94.261-107.159v-382.157h-51.594v382.157c0 30.705-24.892 55.597-55.597 55.597s-55.597-24.892-55.597-55.597v0-382.157zM4194.858 403.285v-57.567c-1.037-58.401-48.624-105.345-107.175-105.345s-106.137 46.944-107.173 105.248l-0.001 0.097v279.858c1.037 58.401 48.624 105.345 107.175 105.345s106.137-46.944 107.173-105.248l0.001-0.097v-56.582l-51.626-5.941v62.523c0 30.705-24.892 55.597-55.597 55.597s-55.597-24.892-55.597-55.597v0-279.858c0-30.705 24.892-55.597 55.597-55.597s55.597 24.892 55.597 55.597v0 57.567zM4475.669 409.225v-63.539c-1.037-58.401-48.624-105.345-107.175-105.345s-106.137 46.944-107.173 105.248l-0.001 0.097v279.89c1.037 58.401 48.624 105.345 107.175 105.345s106.137-46.944 107.173-105.248l0.001-0.097v-148.873h-162.82v-130.986c0-30.705 24.892-55.597 55.597-55.597s55.597 24.892 55.597 55.597v0 57.567zM4312.851 528.33h111.193v97.247c0 30.705-24.892 55.597-55.597 55.597s-55.597-24.892-55.597-55.597v0zM913.153 240.115v0l-2.7 1.398-416.849 221.784 36.186-130.033 105.538-378.98 94.928 138.801 126.221-157.101 73.801 59.282-126.221 157.101 156.021 62.777-46.923 24.971zM486.423 56.71c-18.522 0-48.386 33.549-73.356 108.461-11.664 34.623-21.637 76.090-28.072 118.718l-0.521 4.199h106.905l-19.475 69.702h-96.040c-3.367 37.17-5.115 75.961-5.115 115.674s1.747 78.502 5.115 115.674h221.117c3.336-37.17 5.115-75.961 5.115-115.674 0-4.035 0-8.037 0-12.072l68.94-36.694c0.572 16.235 0.921 32.5 0.921 48.767 0 38.822-1.62 77.708-4.892 115.674h219.91c10.364-34.65 16.33-74.465 16.33-115.674s-5.965-81.024-17.079-118.63l0.749 2.956h-90.29l137.912-73.356c3.431 8.101 6.703 16.267 9.689 24.59 0.559 1.212 1.090 2.669 1.507 4.174l0.050 0.21c17.178 47.685 27.108 102.711 27.108 160.056s-9.93 112.371-28.165 163.451l1.058-3.395c-0.466 1.715-0.997 3.172-1.633 4.572l0.076-0.188c-67.542 187.441-247.263 322.080-457.863 322.080s-390.289-134.481-457.863-322.048c-0.536-1.188-1.067-2.645-1.497-4.143l-0.059-0.241c-17.127-47.654-27.027-102.639-27.027-159.937 0-57.434 9.947-112.544 28.213-163.702l-1.059 3.4c0.517-1.774 1.046-3.229 1.656-4.642l-0.099 0.258c67.574-187.441 247.294-322.080 457.863-322.080 30.589 0.014 60.506 2.858 89.513 8.282l-3.004-0.467-33.422 120.058c-19.634-39.68-39.521-58.012-53.215-58.012zM859.494 658.903h-200.562c-12.422 85.556-33.676 162.279-63.539 216.892 116.524-32.611 210.555-111.223 263.003-214.509l1.098-2.382zM413.067 781.818c24.971 74.913 54.835 108.43 73.356 108.43s48.417-33.517 73.388-108.43c11.645-34.605 21.617-76.071 28.067-118.693l0.526-4.224h-204.056c6.999 46.834 17.015 88.296 30.26 128.284l-1.54-5.367zM377.453 875.634c-29.832-54.612-51.118-131.336-63.539-216.892h-200.657c53.568 105.687 147.635 184.305 261.248 216.185l2.947 0.706zM69.669 473.495c0 0.134 0 0.292 0 0.451 0 41.054 5.977 80.713 17.109 118.152l-0.747-2.929h219.91c-3.177-38.123-4.924-76.85-4.924-115.674s1.652-77.708 4.924-115.674h-219.91c-10.384 34.517-16.362 74.183-16.362 115.246 0 0.15 0 0.301 0 0.451v-0.023zM113.257 288.087h200.657c12.422-85.556 33.708-162.279 63.539-216.892-116.556 32.598-210.62 111.212-263.097 214.51l-1.098 2.382z" />
<glyph unicode="&#xe908;" glyph-name="wgf-small" horiz-adv-x="973" d="M913.191 240.122v0l-2.7 1.398-416.837 221.777 36.185-130.029 105.535-378.969 94.925 138.797 126.217-157.096 73.799 59.28-126.217 157.096 156.016 62.775-46.922 24.97zM486.474 56.753c-18.521 0-48.384 33.516-73.354 108.427-11.664 34.622-21.636 76.088-28.071 118.714l-0.521 4.199h106.679l-19.411 69.732h-95.878c-3.367 37.201-5.115 75.991-5.115 115.702s1.747 78.469 5.115 115.638h221.11c3.336-37.169 5.115-75.959 5.115-115.638 0-4.066 0-8.069 0-12.104l68.938-36.693c0.572 16.234 0.921 32.499 0.921 48.797 0 38.821-1.62 77.706-4.892 115.638h219.903c10.364-34.649 16.329-74.463 16.329-115.67s-5.965-81.021-17.078-118.626l0.749 2.956h-90.287l137.908-73.354c3.431 8.101 6.703 16.266 9.531 24.589 0.559 1.212 1.090 2.669 1.507 4.174l0.050 0.21c17.177 47.684 27.107 102.708 27.107 160.051s-9.93 112.367-28.164 163.446l1.058-3.395c-0.466 1.715-0.997 3.172-1.633 4.572l0.076-0.188c-67.381 187.594-247.097 322.071-457.691 322.071s-390.278-134.477-457.85-322.071c-0.536-1.188-1.067-2.645-1.497-4.143l-0.059-0.241c-17.152-47.686-27.067-102.711-27.067-160.051s9.915-112.364 28.125-163.451l-1.057 3.4c0.517-1.774 1.046-3.229 1.656-4.642l-0.099 0.258c67.572-187.435 247.287-322.039 457.85-322.039 30.591 0.020 60.507 2.851 89.521 8.249l-3.015-0.466-33.421 120.054c-19.506-39.743-39.393-58.105-53.085-58.105zM859.724 658.896h-200.746c-12.422 85.553-33.675 162.274-63.537 216.885 116.596-32.562 210.698-111.183 263.186-214.503l1.098-2.382zM413.12 781.682c24.97 74.911 54.833 108.458 73.354 108.458s48.415-33.548 73.386-108.458c11.649-34.609 21.62-76.073 28.067-118.694l0.525-4.219h-204.050c6.995 46.829 17.010 88.289 30.258 128.276l-1.539-5.362zM377.507 875.654c-29.831-54.61-51.116-131.332-63.537-216.885h-200.651c53.54 105.735 147.61 184.397 261.241 216.305l2.947 0.707zM69.732 473.526c0 0.127 0 0.278 0 0.428 0 41.050 5.977 80.704 17.108 118.139l-0.747-2.929h219.903c-3.177-37.932-4.924-76.817-4.924-115.638s1.652-77.738 4.924-115.702h-219.903c-10.384 34.519-16.361 74.187-16.361 115.251 0 0.158 0 0.317 0 0.475v-0.024zM113.319 288.092h200.651c12.422-85.553 33.707-162.274 63.537-216.853-116.555 32.575-210.619 111.18-263.091 214.471l-1.098 2.382z" />
<glyph unicode="&#xe909;" glyph-name="edit" d="M512-12.791h460.791c28.262 0 51.199 22.938 51.199 51.199s-22.938 51.199-51.199 51.199h-460.791c-28.262 0-51.199-22.938-51.199-51.199s22.938-51.199 51.199-51.199zM706.198 919.39l-639.988-639.988c-6.246-6.195-11.111-14.336-13.465-23.808l-51.199-204.797c-1.997-7.68-2.15-16.281 0-24.831 6.86-27.442 34.661-44.134 62.105-37.272l204.797 51.199c8.55 2.099 16.896 6.605 23.808 13.465l639.988 639.988c31.18 31.18 46.796 72.191 46.796 112.996s-15.615 81.816-46.796 112.996-72.242 46.847-113.047 46.847-81.816-15.615-112.996-46.796zM778.593 846.994c11.213 11.213 25.804 16.794 40.601 16.794s29.389-5.581 40.601-16.794 16.794-25.804 16.794-40.601-5.581-29.389-16.794-40.601l-629.953-629.953-108.286-27.085 27.085 108.286z" />
<glyph unicode="&#xe90a;" glyph-name="calendar" d="M900.594 881.231h-118.153v39.385c0 10.445-4.151 20.463-11.537 27.849-7.385 7.386-17.403 11.535-27.848 11.535-10.447 0-20.463-4.149-27.849-11.535s-11.535-17.404-11.535-27.849v-39.385h-393.847v39.385c0 10.445-4.149 20.463-11.535 27.849-7.385 7.386-17.403 11.535-27.848 11.535-10.447 0-20.465-4.149-27.849-11.535-7.386-7.386-11.535-17.404-11.535-27.849v-39.385h-118.154c-20.891 0-40.926-8.299-55.698-23.071s-23.071-34.807-23.071-55.698v-787.692c0-20.891 8.299-40.926 23.071-55.699 14.772-14.771 34.807-23.071 55.698-23.071h787.692c20.891 0 40.928 8.3 55.699 23.071 14.773 14.773 23.071 34.807 23.071 55.699v787.692c0 20.891-8.298 40.926-23.071 55.698-14.771 14.772-34.807 23.071-55.699 23.071zM231.057 802.462v-39.385c0-10.445 4.149-20.463 11.535-27.848 7.385-7.386 17.403-11.537 27.849-11.537s20.463 4.151 27.848 11.537c7.386 7.385 11.535 17.403 11.535 27.848v39.385h393.847v-39.385c0-10.445 4.149-20.463 11.535-27.848 7.386-7.386 17.403-11.537 27.849-11.537s20.463 4.151 27.848 11.537c7.386 7.385 11.537 17.403 11.537 27.848v39.385h118.153v-157.538h-787.692v157.538h118.154zM900.594 14.769h-787.692v551.385h787.692v-551.385z" />
<glyph unicode="&#xe90b;" glyph-name="plus" d="M64 384h383.999v-383.999c0-35.328 28.672-64 64-64s64 28.672 64 64v383.999h383.999c35.328 0 64 28.672 64 64s-28.672 64-64 64h-383.999v383.999c0 35.328-28.672 64-64 64s-64-28.672-64-64v-383.999h-383.999c-35.328 0-64-28.672-64-64s28.672-64 64-64z" />
<glyph unicode="&#xe90c;" glyph-name="user" d="M1018.194 18.154c-74.906 129.498-190.339 222.356-325.052 266.377 66.635 39.668 118.407 100.113 147.364 172.052s33.498 151.397 12.928 226.167c-20.572 74.771-65.118 140.721-126.799 187.724s-137.086 72.459-214.636 72.459-152.953-25.456-214.636-72.459c-61.681-47.003-106.226-112.953-126.798-187.724s-16.029-154.228 12.927-226.167c28.957-71.939 80.729-132.384 147.364-172.052-134.712-43.971-250.146-136.829-325.052-266.377-2.747-4.48-4.569-9.463-5.359-14.659-0.79-5.193-0.531-10.494 0.761-15.587s3.591-9.876 6.761-14.066c3.17-4.19 7.148-7.702 11.697-10.33s9.58-4.318 14.794-4.97c5.214-0.654 10.505-0.254 15.562 1.171s9.778 3.85 13.883 7.129c4.105 3.28 7.512 7.349 10.019 11.965 92.661 160.142 256.442 255.753 438.076 255.753s345.414-95.611 438.076-255.753c2.507-4.617 5.914-8.685 10.020-11.965 4.105-3.279 8.825-5.704 13.882-7.129s10.349-1.824 15.563-1.171c5.212 0.652 10.243 2.342 14.793 4.97s8.527 6.141 11.697 10.33c3.169 4.19 5.468 8.974 6.76 14.066s1.551 10.394 0.761 15.587c-0.79 5.195-2.611 10.179-5.359 14.659zM236.573 588.681c0 54.473 16.154 107.725 46.418 153.018s73.281 80.596 123.609 101.442c50.326 20.846 105.706 26.301 159.133 15.673s102.504-36.859 141.024-75.379c38.519-38.518 64.751-87.595 75.378-141.022s5.173-108.807-15.674-159.135c-20.845-50.328-56.148-93.343-101.443-123.607-45.293-30.264-98.545-46.418-153.018-46.418-73.023 0.079-143.034 29.121-194.669 80.756s-80.679 121.646-80.758 194.671z" />
<glyph unicode="&#xe90d;" glyph-name="control" d="M213.333 533.333v298.667c0 23.552-19.115 42.667-42.667 42.667s-42.667-19.115-42.667-42.667v-298.667c0-23.552 19.115-42.667 42.667-42.667s42.667 19.115 42.667 42.667zM554.667 64v384c0 23.552-19.115 42.667-42.667 42.667s-42.667-19.115-42.667-42.667v-384c0-23.552 19.115-42.667 42.667-42.667s42.667 19.115 42.667 42.667zM896 448v384c0 23.552-19.115 42.667-42.667 42.667s-42.667-19.115-42.667-42.667v-384c0-23.552 19.115-42.667 42.667-42.667s42.667 19.115 42.667 42.667zM42.667 320h85.333v-256c0-23.552 19.115-42.667 42.667-42.667s42.667 19.115 42.667 42.667v256h85.333c23.552 0 42.667 19.115 42.667 42.667s-19.115 42.667-42.667 42.667h-256c-23.552 0-42.667-19.115-42.667-42.667s19.115-42.667 42.667-42.667zM384 576h256c23.552 0 42.667 19.115 42.667 42.667s-19.115 42.667-42.667 42.667h-85.333v170.667c0 23.552-19.115 42.667-42.667 42.667s-42.667-19.115-42.667-42.667v-170.667h-85.333c-23.552 0-42.667-19.115-42.667-42.667s19.115-42.667 42.667-42.667zM725.333 234.667h85.333v-170.667c0-23.552 19.115-42.667 42.667-42.667s42.667 19.115 42.667 42.667v170.667h85.333c23.552 0 42.667 19.115 42.667 42.667s-19.115 42.667-42.667 42.667h-256c-23.552 0-42.667-19.115-42.667-42.667s19.115-42.667 42.667-42.667z" />
<glyph unicode="&#xe90e;" glyph-name="message" d="M1023.994 294.402v511.994c0 42.393-17.255 80.895-45.004 108.594s-66.201 45.004-108.594 45.004h-716.79c-42.393 0-80.895-17.255-108.594-45.004s-45.004-66.201-45.004-108.594v-819.19c0-13.107 5.017-26.214 15.001-36.198 20.019-20.019 52.429-20.019 72.396 0l189.796 189.796h593.196c42.393 0 80.895 17.255 108.594 45.004s45.004 66.201 45.004 108.594zM921.594 294.402c0-14.131-5.683-26.88-15.001-36.198s-22.067-15.001-36.198-15.001h-614.392c-14.131 0-26.931-5.735-36.198-15.001l-117.4-117.4v695.594c0 14.131 5.683 26.88 15.001 36.198s22.067 15.001 36.198 15.001h716.79c14.131 0 26.88-5.683 36.198-15.001s15.001-22.067 15.001-36.198z" />
<glyph unicode="&#xe90f;" glyph-name="thumbs-up" d="M558.545 587.635c0-25.693 20.853-46.545 46.545-46.545h264.329c3.025-0.093 7.121-0.512 7.121-0.512 12.707-1.908 23.366-8.75 30.487-18.432s10.473-21.876 8.565-34.537l-64.232-418.812c-1.723-11.124-7.261-20.853-15.127-27.927-8.378-7.493-19.317-11.916-31.93-11.776h-478.482v455.582l167.934 377.852c14.29-4.561 27.089-12.474 37.515-22.9 16.896-16.896 27.276-40.075 27.276-65.815zM651.635 634.18v139.635c0 51.386-20.898 98.024-54.55 131.629s-80.243 54.55-131.629 54.55c-18.851 0-35.095-11.218-42.542-27.648l-186.18-418.905c-2.793-6.237-4.049-12.8-4.003-18.898v-511.995c0-25.693 20.853-46.545 46.545-46.545h525.028c35.7-0.419 68.98 13.079 94.067 35.514 23.506 21.038 39.889 50.082 45.009 82.99l64.232 418.998c5.818 38.167-4.468 75.124-25.6 103.842s-53.387 49.478-91.461 55.249c-7.68 1.164-15.499 1.723-22.9 1.583zM279.275 29.095h-139.635c-12.846 0-24.436 5.166-32.907 13.637s-13.637 20.061-13.637 32.907v325.815c0 12.846 5.166 24.436 13.637 32.907s20.061 13.637 32.907 13.637h139.635c25.693 0 46.545 20.853 46.545 46.545s-20.853 46.545-46.545 46.545h-139.635c-38.539 0-73.541-15.686-98.722-40.913s-40.913-60.183-40.913-98.722v-325.815c0-38.539 15.686-73.541 40.913-98.722s60.183-40.913 98.722-40.913h139.635c25.693 0 46.545 20.853 46.545 46.545s-20.853 46.545-46.545 46.545z" />
<glyph unicode="&#xe910;" glyph-name="toggle-left" d="M341.333 789.333c-94.251 0-179.627-38.272-241.365-99.968s-99.968-147.115-99.968-241.365 38.272-179.627 99.968-241.365 147.115-99.968 241.365-99.968h341.333c94.251 0 179.627 38.272 241.365 99.968s99.968 147.115 99.968 241.365-38.272 179.627-99.968 241.365-147.115 99.968-241.365 99.968zM341.333 704h341.333c70.699 0 134.656-28.587 181.035-74.965s74.965-110.336 74.965-181.035-28.587-134.656-74.965-181.035-110.336-74.965-181.035-74.965h-341.333c-70.699 0-134.656 28.587-181.035 74.965s-74.965 110.336-74.965 181.035 28.587 134.656 74.965 181.035 110.336 74.965 181.035 74.965zM512 448c0 47.104-19.157 89.856-50.005 120.661s-73.557 50.005-120.661 50.005-89.856-19.157-120.661-50.005-50.005-73.557-50.005-120.661 19.157-89.856 50.005-120.661 73.557-50.005 120.661-50.005 89.856 19.157 120.661 50.005 50.005 73.557 50.005 120.661zM426.667 448c0-23.595-9.515-44.843-25.003-60.331s-36.736-25.003-60.331-25.003-44.843 9.515-60.331 25.003-25.003 36.736-25.003 60.331 9.515 44.843 25.003 60.331 36.736 25.003 60.331 25.003 44.843-9.515 60.331-25.003 25.003-36.736 25.003-60.331z" />
<glyph unicode="&#xe911;" glyph-name="toggle-right" d="M341.333 789.333c-94.251 0-179.627-38.272-241.365-99.968s-99.968-147.115-99.968-241.365 38.272-179.627 99.968-241.365 147.115-99.968 241.365-99.968h341.333c94.251 0 179.627 38.272 241.365 99.968s99.968 147.115 99.968 241.365-38.272 179.627-99.968 241.365-147.115 99.968-241.365 99.968zM341.333 704h341.333c70.699 0 134.656-28.587 181.035-74.965s74.965-110.336 74.965-181.035-28.587-134.656-74.965-181.035-110.336-74.965-181.035-74.965h-341.333c-70.699 0-134.656 28.587-181.035 74.965s-74.965 110.336-74.965 181.035 28.587 134.656 74.965 181.035 110.336 74.965 181.035 74.965zM853.333 448c0 47.104-19.157 89.856-50.005 120.661s-73.557 50.005-120.661 50.005-89.856-19.157-120.661-50.005-50.005-73.557-50.005-120.661 19.157-89.856 50.005-120.661 73.557-50.005 120.661-50.005 89.856 19.157 120.661 50.005 50.005 73.557 50.005 120.661zM768 448c0-23.595-9.515-44.843-25.003-60.331s-36.736-25.003-60.331-25.003-44.843 9.515-60.331 25.003-25.003 36.736-25.003 60.331 9.515 44.843 25.003 60.331 36.736 25.003 60.331 25.003 44.843-9.515 60.331-25.003 25.003-36.736 25.003-60.331z" />
<glyph unicode="&#xe912;" glyph-name="chevron-left" d="M783.137 60.858l-387.142 387.142 387.142 387.142c28.599 28.599 28.599 74.898 0 103.424s-74.898 28.599-103.424 0l-438.853-438.853c-28.599-28.599-28.599-74.898 0-103.424l438.853-438.853c28.599-28.599 74.898-28.599 103.424 0s28.599 74.898 0 103.424z" />
<glyph unicode="&#xe913;" glyph-name="chevron-right" d="M344.285-42.563l438.852 438.852c28.599 28.599 28.599 74.898 0 103.423l-438.852 438.852c-28.599 28.599-74.898 28.599-103.423 0s-28.599-74.898 0-103.423l387.141-387.141-387.141-387.141c-28.599-28.599-28.599-74.898 0-103.423s74.898-28.599 103.423 0z" />
<glyph unicode="&#xe914;" glyph-name="table" d="M682.669 277.331h-682.669v-113.773h682.669v113.773zM682.669 732.444h-682.669v-113.777h682.669v113.777zM0 391.111h1024v113.778h-1024v-113.778zM0-64h1024v113.779h-1024v-113.779zM0 960v-113.778h1024v113.778h-1024z" />
<glyph unicode="&#xe915;" glyph-name="arrow-right" horiz-adv-x="1186" d="M73.982 385.155h879.101l-269.062-313.36c-12.573-14.679-18.622-33.608-16.833-52.605s11.331-36.534 26.467-48.737 34.647-18.074 54.256-16.313c19.598 1.755 37.683 10.985 50.261 25.659l370.624 431.218c2.494 3.435 4.728 7.037 6.673 10.777 0 3.59 0 5.749 5.195 9.346 3.36 8.249 5.12 17.017 5.184 25.872-0.069 8.861-1.83 17.635-5.184 25.872 0 3.59 0 5.749-5.195 9.346-1.94 3.752-4.174 7.348-6.673 10.777l-370.624 431.218c-6.962 8.11-15.695 14.633-25.561 19.113s-20.619 6.783-31.518 6.771c-17.318 0.040-34.098-5.807-47.444-16.532-7.51-6.032-13.704-13.444-18.264-21.803-4.543-8.359-7.348-17.508-8.249-26.929s0.133-18.905 3.025-27.933c2.886-9.034 7.602-17.416 13.831-24.677l269.062-313.36h-879.101c-19.661 0-38.514-7.574-52.414-21.047s-21.705-31.755-21.705-50.827c0-19.067 7.804-37.348 21.705-50.827s32.759-21.047 52.414-21.047z" />
<glyph unicode="&#xe916;" glyph-name="delete" d="M791.272 680.727v-605.090c0-12.847-5.167-24.436-13.637-32.907s-20.061-13.637-32.907-13.637h-465.454c-12.847 0-24.436 5.167-32.907 13.637s-13.637 20.061-13.637 32.907v605.090zM744.727 773.818v46.546c0 38.54-15.686 73.541-40.913 98.723s-60.183 40.913-98.723 40.913h-186.182c-38.54 0-73.541-15.686-98.723-40.913s-40.913-60.183-40.913-98.723v-46.546h-186.182c-25.693 0-46.546-20.853-46.546-46.546s20.853-46.546 46.546-46.546h46.546v-605.090c0-38.54 15.686-73.541 40.913-98.723s60.183-40.913 98.723-40.913h465.454c38.54 0 73.541 15.686 98.723 40.913s40.913 60.183 40.913 98.723v605.090h46.546c25.693 0 46.546 20.853 46.546 46.546s-20.853 46.546-46.546 46.546zM372.364 773.818v46.546c0 12.847 5.167 24.436 13.637 32.907s20.061 13.637 32.907 13.637h186.182c12.847 0 24.436-5.167 32.907-13.637s13.637-20.061 13.637-32.907v-46.546zM372.364 494.546v-279.272c0-25.693 20.853-46.546 46.546-46.546s46.546 20.853 46.546 46.546v279.272c0 25.693-20.853 46.546-46.546 46.546s-46.546-20.853-46.546-46.546zM558.546 494.546v-279.272c0-25.693 20.853-46.546 46.546-46.546s46.546 20.853 46.546 46.546v279.272c0 25.693-20.853 46.546-46.546 46.546s-46.546-20.853-46.546-46.546z" />
<glyph unicode="&#xe917;" glyph-name="check" d="M926.888 829.551l-585.553-585.553-244.222 244.222c-22.244 22.244-58.254 22.244-80.441 0s-22.244-58.254 0-80.441l284.442-284.442c22.244-22.244 58.254-22.244 80.441 0l625.773 625.773c22.244 22.244 22.244 58.254 0 80.441s-58.254 22.244-80.441 0z" />
<glyph unicode="&#xe918;" glyph-name="chevron-down" d="M21.437 615.715l438.852-438.852c28.599-28.599 74.898-28.599 103.423 0l438.852 438.852c28.599 28.599 28.599 74.898 0 103.423s-74.898 28.599-103.423 0l-387.141-387.141-387.141 387.141c-28.599 28.599-74.898 28.599-103.423 0s-28.599-74.898 0-103.423z" />
<glyph unicode="&#xe919;" glyph-name="chevron-up" d="M1002.564 280.285l-438.853 438.853c-28.599 28.599-74.898 28.599-103.423 0l-438.853-438.853c-28.599-28.599-28.599-74.898 0-103.423s74.898-28.599 103.423 0l387.141 387.141 387.141-387.141c28.599-28.599 74.898-28.599 103.423 0s28.599 74.898 0 103.423z" />
<glyph unicode="&#xe91c;" glyph-name="home" d="M64.492 624.369c-10.985-8.565-17.967-21.831-17.967-36.726v-512.023c0-38.541 15.687-73.545 40.915-98.727s60.186-40.915 98.727-40.915h651.665c38.541 0 73.545 15.687 98.727 40.915s40.915 60.186 40.915 98.727v512.023c-0.047 13.964-6.237 27.602-17.967 36.726l-418.928 325.833c-16.664 12.8-40.077 13.266-57.161 0zM698.191 29.072v418.928c0 25.694-20.854 46.548-46.548 46.548h-279.285c-25.694 0-46.548-20.854-46.548-46.548v-418.928h-139.643c-12.847 0-24.437 5.167-32.909 13.638s-13.638 20.062-13.638 32.909v489.261l372.38 289.619 372.38-289.619v-489.261c0-12.847-5.167-24.437-13.638-32.909s-20.062-13.638-32.909-13.638zM418.905 29.072v372.38h186.191v-372.38z" />
<glyph unicode="&#xf1d8;" glyph-name="send" d="M1002.629 938.594c-9.197 9.192-20.678 15.765-33.261 19.043s-25.813 3.143-38.327-0.392h-0.684l-877.432-266.236c-14.283-4.108-26.976-12.469-36.388-23.97s-15.098-25.598-16.299-40.41c-1.201-14.814 2.138-29.641 9.575-42.51s18.616-23.165 32.050-29.52l391.401-185.37 185.37-391.4c5.852-12.534 15.169-23.132 26.849-30.544s25.236-11.327 39.071-11.284c2.103 0 4.205 0.092 6.308 0.275 14.761 1.195 28.803 6.876 40.243 16.282s19.729 22.084 23.755 36.335l266.054 877.431c0 0.229 0 0.457 0 0.686 3.582 12.482 3.775 25.691 0.561 38.273s-9.718 24.080-18.847 33.315zM684.966 9.829l-0.229-0.64-179.93 379.834 215.953 215.997c6.569 6.915 10.177 16.121 10.054 25.658-0.121 9.537-3.965 18.647-10.708 25.392-6.745 6.743-15.855 10.586-25.392 10.708s-18.743-3.485-25.658-10.054l-215.997-215.953-379.241 179.93 877.065 266.145-265.916-877.019z" />
</font>
</defs>
</svg>
